видеорегистратор на moservices

Re: видеорегистратор на moservices

Postby IsWin » 09 Jan 2015, 16:46

незнаю :)
а что делать? )
BBK mp-070s
IsWin
 
Posts: 32
Joined: 10 Dec 2014, 17:49

Re: видеорегистратор на moservices

Postby retv_qwe » 09 Jan 2015, 17:38

Пока вы ломали плеер я поигрался с IP-камерой (какая-то китайская noname, 4 года стояли, потом были заменены на камеры более высокого разрешения, весь веб-интерфейс камеры на чистом китайском, в общем чем богаты тому и рады).
Напрямую загнать поток H264 с камеры не получилось, плеер отказался показывать картинку, звук был.
Поняв, что частота кадров камеры не соответствует стандарту плеера (50 кадров/сек), начал уменьшать,
поставил 30 - плеер картинку так и не показал,
поставил 25 - плеер показал практически неподвижную картинку, то есть плавного воспроизведения не было,
поставил 24 - плеер показал более менее плавную картинку, но звук картинку опережал и на много.
Попробовал записать плеером поток, на записанном потоке присутствует огромное количество артефактов, и должно быть по идее 4 минуты, а не 3 м 38 сек:
MediaInfo | +
Code: Select all
Общее
Идентификатор                            : 12765 (0x31DD)
Полное имя                               : I:\tv3310.ts
Формат                                   : MPEG-TS
Размер файла                             : 27,9 Мбайт
Продолжительность                        : 3 м. 38 с.
Режим общего битрейта                    : Переменный
Общий поток                              : 1073 Кбит/сек

Видео
Идентификатор                            : 69 (0x45)
Идентификатор меню                       : 1 (0x1)
Формат                                   : AVC
Формат/Информация                        : Advanced Video Codec
Профиль формата                          : High@L2.0
Параметр CABAC формата                   : Да
Параметр ReFrames формата                : 4 кадра
Идентификатор кодека                     : 27
Продолжительность                        : 3 м. 37 с.
Битрейт                                  : 890 Кбит/сек
Ширина                                   : 352 пикселя
Высота                                   : 288 пикселей
Соотношение сторон                       : 4:3
Частота кадров                           : 24,000 кадра/сек
Стандарт вещания                         : PAL
Цветовое пространство                    : YUV
Субдискретизация насыщенности            : 4:2:0
Битовая глубина                          : 8 бит
Тип развёртки                            : Прогрессивная
Бит/(Пиксели*Кадры)                      : 0.366
Размер потока                            : 23,1 Мбайт (83%)

Аудио
Идентификатор                            : 68 (0x44)
Идентификатор меню                       : 1 (0x1)
Формат                                   : MPEG Audio
Версия формата                           : Version 1
Профиль формата                          : Layer 2
Идентификатор кодека                     : 3
Продолжительность                        : 3 м. 38 с.
Вид битрейта                             : Постоянный
Битрейт                                  : 128 Кбит/сек
Каналы                                   : 2 канала
Частота                                  : 44,1 КГц
Метод сжатия                             : С потерями
Задержка видео                           : -201 мс.
Размер потока                            : 3,33 Мбайт (12%)
На компе в веб браузере и vlc-плеере картинка и звук в любом случае были нормальными.

Для интереса проверил MJPEG, плеер отказался вообще его воспроизвести.

Далее решил перекодировать vlc-плеером (то есть организовал потоковое вешание с ip-камеры через vlc-плеер и опять в сеть) в какой нибудь другой формат, перебрал все кодеки в vlc-плеере (ставил в настройках кодека видео частоту кадров 24,00 к/с),
удалось только на кодеке MPEG-2 (TS), и картинка и звук были в норме.
Попробовал записать поток, на записанном потоке практически нет артефактов, 4 минуты:
MediaInfo | +
Code: Select all
Общее
Идентификатор                            : 32770 (0x8002)
Полное имя                               : I:\tv3311.ts
Формат                                   : MPEG-TS
Размер файла                             : 48,6 Мбайт
Продолжительность                        : 4 м. 1 с.
Режим общего битрейта                    : Переменный
Общий поток                              : 1692 Кбит/сек

Видео
Идентификатор                            : 69 (0x45)
Идентификатор меню                       : 1 (0x1)
Формат                                   : MPEG Video
Версия формата                           : Version 2
Профиль формата                          : Main@Main
Параметр BVOP формата                    : Нет
Параметр матрицы формата                 : По умолчанию
Параметр GOP формата                     : Variable
Идентификатор кодека                     : 2
Продолжительность                        : 4 м. 0 с.
Вид битрейта                             : Переменный
Битрейт                                  : 1479 Кбит/сек
Ширина                                   : 352 пикселя
Высота                                   : 288 пикселей
Соотношение сторон                       : 4:3
Частота кадров                           : 24,000 кадра/сек
Стандарт вещания                         : PAL
Цветовое пространство                    : YUV
Субдискретизация насыщенности            : 4:2:0
Битовая глубина                          : 8 бит
Тип развёртки                            : Прогрессивная
Метод сжатия                             : С потерями
Бит/(Пиксели*Кадры)                      : 0.608
Временной код первого кадра              : 00:00:46:12
Оригинал временного кода                 : Group of pictures header
Размер потока                            : 42,5 Мбайт (87%)

Аудио
Идентификатор                            : 68 (0x44)
Идентификатор меню                       : 1 (0x1)
Формат                                   : MPEG Audio
Версия формата                           : Version 1
Профиль формата                          : Layer 2
Идентификатор кодека                     : 3
Продолжительность                        : 4 м. 1 с.
Вид битрейта                             : Постоянный
Битрейт                                  : 128 Кбит/сек
Каналы                                   : 2 канала
Частота                                  : 44,1 КГц
Метод сжатия                             : С потерями
Задержка видео                           : 1 мс.
Размер потока                            : 3,68 Мбайт (8%)


Вот запись телеканала России-1 HD записанный плеером тем же способом, плеер показывает поток и воспроизводит записанный файл идеально, 3 минуты:
MediaInfo | +
Code: Select all
Общее
Идентификатор                            : 0 (0x0)
Полное имя                               : I:\RosHD.ts
Формат                                   : MPEG-TS
Размер файла                             : 107 Мбайт
Продолжительность                        : 3 м. 0 с.
Режим общего битрейта                    : Переменный
Общий поток                              : 4972 Кбит/сек

Видео
Идентификатор                            : 2073 (0x819)
Идентификатор меню                       : 3 (0x3)
Формат                                   : AVC
Формат/Информация                        : Advanced Video Codec
Профиль формата                          : High@L4.0
Параметр CABAC формата                   : Да
Параметр ReFrames формата                : 4 кадра
Идентификатор кодека                     : 27
Продолжительность                        : 2 м. 59 с.
Вид битрейта                             : Переменный
Максимальный битрейт                     : 5000 Кбит/сек
Ширина                                   : 1920 пикселей
Высота                                   : 1080 пикселей
Соотношение сторон                       : 16:9
Режим частоты кадров                     : Переменный
Цветовое пространство                    : YUV
Субдискретизация насыщенности            : 4:2:0
Битовая глубина                          : 8 бит
Тип развёртки                            : MBAFF
Порядок развёртки                        : Верхнее поле первое

Аудио
Идентификатор                            : 2072 (0x818)
Идентификатор меню                       : 3 (0x3)
Формат                                   : AAC
Формат/Информация                        : Advanced Audio Codec
Версия формата                           : Version 4
Профиль формата                          : LC
Режим смешивания                         : ADTS
Идентификатор кодека                     : 15
Продолжительность                        : 3 м. 0 с.
Вид битрейта                             : Переменный
Каналы                                   : 2 канала
Расположение каналов                     : Front: L R
Частота                                  : 48,0 КГц
Метод сжатия                             : С потерями
Задержка видео                           : -342 мс.
Язык                                     : Russian

3Q-F420HW на проце RT1073DD C+, прошивка официальная V9.11-Lite_2012-05-31, moServices core
retv_qwe
 
Posts: 233
Joined: 01 Jun 2012, 13:19

Re: видеорегистратор на moservices

Postby IsWin » 10 Jan 2015, 18:20

круто
хочется собрать http://www.zoneminder.com/

исхожу из мысли что камера(ы) жмут -> получается девайсу только сохранять на винт (и воспроизводить по вебу при просмотре (возможно с "тормозами" - второстепенная задача))
по идеи же должно хватить девайса. не?
BBK mp-070s
IsWin
 
Posts: 32
Joined: 10 Dec 2014, 17:49

Re: видеорегистратор на moservices

Postby IsWin » 11 May 2015, 16:04

Virtual wrote:у вас случаем не тот ббкей что питание внутреннегодиска включается через gpio :) ?

кажется оно :)
винт не крутится
а как его включить через gpio? :)
BBK mp-070s
IsWin
 
Posts: 32
Joined: 10 Dec 2014, 17:49

Re: видеорегистратор на moservices

Postby IsWin » 11 May 2015, 21:30

все отлично спасибо
03 53 1 помогло
BBK mp-070s
IsWin
 
Posts: 32
Joined: 10 Dec 2014, 17:49

Re: видеорегистратор на moservices

Postby IsWin » 20 May 2015, 17:10

как бы ядро собрать новое под него :)
без видео и аудио
BBK mp-070s
IsWin
 
Posts: 32
Joined: 10 Dec 2014, 17:49

Re: видеорегистратор на moservices

Postby FarVoice » 20 May 2015, 18:14

а чем amp не катит? Выберите скин nogui и не будет у вас ни видео ни аудио.
ASUS O!Play R1 (amp_r12_vrtn), xTreamer Pro (amp_r12_vrt), xTreamer Prodigy (iNeXT 2.14 r2), IconBIT HDR12L (amp_r12_vrt), 3Q F425HW (xds42gl_7725_r3), MyGica A11 (mygica_m3_20121222)
User avatar
FarVoice
Администратор
 
Posts: 8573
Joined: 03 Sep 2010, 01:27
Location: Russia, Moscow

Re: видеорегистратор на moservices

Postby IsWin » 20 May 2015, 20:31

а как бы собрать что нибуть под неё (zoneminder например)
BBK mp-070s
IsWin
 
Posts: 32
Joined: 10 Dec 2014, 17:49

Re: видеорегистратор на moservices

Postby Virtual » 20 May 2015, 22:03

нее кого?
для плеера? бери тулчейн да собирай.
IsWin wrote:а где этот тулчейн взять?

у асуса на фтп есть... да и у многих производителей....
дла AMP12(с уже собраными многими либами) тут
марсы: HDS7 (смотрелка AMP скин vrt уже без вариантов)
HDR12 AMP (обычно сервер с RAM 256 и возможностью подключить 2 SATA диска 2T+)
XTR PRO(AMP, HTTP(S) NFS SMB FTP сервер +trans2.84 + 2 SATA диска 2T+
сатурны: XTR Prodigy, R6S(512Mb_NAND), HD900A(_MD*) прошивка
User avatar
Virtual
 
Posts: 6347
Joined: 01 Oct 2010, 17:17
Location: UFA RU

Re: видеорегистратор на moservices

Postby IsWin » 21 May 2015, 15:33

как пользоваться эти кайфовым мероприятием? )
BBK mp-070s
IsWin
 
Posts: 32
Joined: 10 Dec 2014, 17:49

PreviousNext

Return to Разработка

Who is online

Users browsing this forum: vvv9660 and 1 guest