Расширенный прогноз погоды (Yahoo Weather)

Re: Расширенный прогноз погоды (Yahoo Weather)

Postby FarVoice » 26 Jul 2016, 19:27

воткнул 80%

UPD: Градиент виден :(
Плеер на самом деле показывает RGB565 . Сделайте, чтоб не было полос, плз.
ASUS O!Play R1 (amp_r12_vrtn), xTreamer Pro (amp_r12_vrt), xTreamer Prodigy (iNeXT 2.14 r2), IconBIT HDR12L (amp_r12_vrt), 3Q F425HW (xds42gl_7725_r3), MyGica A11 (mygica_m3_20121222)
User avatar
FarVoice
Администратор
 
Posts: 8573
Joined: 03 Sep 2010, 01:27
Location: Russia, Moscow

Re: Расширенный прогноз погоды (Yahoo Weather)

Postby PiavwynkOuz8 » 27 Jul 2016, 13:27

Градиент содержится в исходном файле. Я только поменял степень прозрачности.
По поводу преобразования. Формат RGB565 не имеет альфа канала. Картинка не будет прозрачной, или я что-то путаю? Преобразовать в RGB565, я затем добавить альфа канал?
Woxter i-Cube 2750 RTD1185DC + DVB-T2, WiFi only (TEW 648UB), HDD 2TB
PiavwynkOuz8
 
Posts: 62
Joined: 05 Jul 2016, 16:44

Re: Расширенный прогноз погоды (Yahoo Weather)

Postby FarVoice » 27 Jul 2016, 22:47

видимо да. Плеер у вас под рукой. Пробуйте...
ASUS O!Play R1 (amp_r12_vrtn), xTreamer Pro (amp_r12_vrt), xTreamer Prodigy (iNeXT 2.14 r2), IconBIT HDR12L (amp_r12_vrt), 3Q F425HW (xds42gl_7725_r3), MyGica A11 (mygica_m3_20121222)
User avatar
FarVoice
Администратор
 
Posts: 8573
Joined: 03 Sep 2010, 01:27
Location: Russia, Moscow

Re: Расширенный прогноз погоды (Yahoo Weather)

Postby Virtual » 28 Jul 2016, 08:45

в плеере в режиме RGB565
в самой картинке нет альфаканала, есть только ключевой спец цвет прозрачности
так же в самом rss можно наложить прозрачность.
и да RGB565 это для bmp 16бит
марсы: HDS7 (смотрелка AMP скин vrt уже без вариантов)
HDR12 AMP (обычно сервер с RAM 256 и возможностью подключить 2 SATA диска 2T+)
XTR PRO(AMP, HTTP(S) NFS SMB FTP сервер +trans2.90 + 2 SATA диска 2T+
сатурны: XTR Prodigy, R6S(512Mb_NAND), HD900A(_MD*) прошивка
User avatar
Virtual
 
Posts: 6461
Joined: 01 Oct 2010, 17:17
Location: UFA RU

Re: Расширенный прогноз погоды (Yahoo Weather)

Postby PiavwynkOuz8 » 28 Jul 2016, 13:34

Извините, возможно мы говорим о разном.
BMP файлы в плеере тоже в разном формате, например:
Code: Select all
PiavwynkOuz8@ubuntu $ ffmpeg -i Muzee_BG.bmp
...
    Stream #0:0: Video: bmp, bgra, 1280x720
Формат BGRA с альфа каналом, 8 бит на канал
Code: Select all
PiavwynkOuz8@ubuntu $ ffmpeg -i podcast_bg_16bit.bmp
...
    Stream #0:0: Video: bmp, rgb565le, 1280x720
Формат RGB565 без альфа канала

PNG файл панели отображения погоды
Code: Select all
PiavwynkOuz8@ubuntu $ ffmpeg -i panel.png
...
    Stream #0:0: Video: png, rgba(pc), 1024x512
Именно он грузится при отображения погоды.
Я пробовал увеличить прозрачность - стал виден градиент. Подскажите как его поменять, чтобы улучшить видимость фона?
Woxter i-Cube 2750 RTD1185DC + DVB-T2, WiFi only (TEW 648UB), HDD 2TB
PiavwynkOuz8
 
Posts: 62
Joined: 05 Jul 2016, 16:44

Re: Расширенный прогноз погоды (Yahoo Weather)

Postby solocare » 21 Jan 2017, 21:51

Установил модуль с неделю назад и каждый ее день почему-то отображается погода настроенного города где-то один раз из пяти, в большинстве случаев при запуске модуля вылазит одна и та же заглушка без фона с одиноким "Торнадо -18" и пустыми остальными полями:
Image
Инет стабильный, яха и мос доступны, памяти хватает, что это может быть?
Egreat R1, AMP r12, GUI VRT 6.29a, LAN
solocare
 
Posts: 17
Joined: 27 Jan 2015, 21:42

Re: Расширенный прогноз погоды (Yahoo Weather)

Postby FarVoice » 22 Jan 2017, 08:29

хм. ни разу такого не было... Покажите содержимое /usr/local/etc/mos/www/modules/weather/weather.conf
ASUS O!Play R1 (amp_r12_vrtn), xTreamer Pro (amp_r12_vrt), xTreamer Prodigy (iNeXT 2.14 r2), IconBIT HDR12L (amp_r12_vrt), 3Q F425HW (xds42gl_7725_r3), MyGica A11 (mygica_m3_20121222)
User avatar
FarVoice
Администратор
 
Posts: 8573
Joined: 03 Sep 2010, 01:27
Location: Russia, Moscow

Re: Расширенный прогноз погоды (Yahoo Weather)

Postby mrsoje » 22 Jan 2017, 10:58

то же самое с моим плеером
weather.conf | +
# code of city
532697
# temperature on C or F (in low case)
c
# language
core
Player Egreat R200S
Firmware amps_r6_nogui with 3Dgui skin
mrsoje
 
Posts: 128
Joined: 19 Jul 2013, 19:47
Location: Србија

Re: Расширенный прогноз погоды (Yahoo Weather)

Postby FarVoice » 22 Jan 2017, 11:37

все претензии к Yahoo:
Code: Select all
query=https://query.yahooapis.com/v1/public/yql?q=select%20*%20from%20weather.forecast%20where%20u%20=%20%27f%27%20AND%20woeid%20=%20%27532697%27&format=json
Array
(
    [query] => Array
        (
            [count] => 0
            [created] => 2017-01-22T07:37:01Z
            [lang] => en-US
            [results] =>
        )

)

они отказываются возвращать результат запроса :(
ASUS O!Play R1 (amp_r12_vrtn), xTreamer Pro (amp_r12_vrt), xTreamer Prodigy (iNeXT 2.14 r2), IconBIT HDR12L (amp_r12_vrt), 3Q F425HW (xds42gl_7725_r3), MyGica A11 (mygica_m3_20121222)
User avatar
FarVoice
Администратор
 
Posts: 8573
Joined: 03 Sep 2010, 01:27
Location: Russia, Moscow

Re: Расширенный прогноз погоды (Yahoo Weather)

Postby mrsoje » 22 Jan 2017, 13:45

Я так думала
Player Egreat R200S
Firmware amps_r6_nogui with 3Dgui skin
mrsoje
 
Posts: 128
Joined: 19 Jul 2013, 19:47
Location: Србија

PreviousNext

Return to Разработка

Who is online

Users browsing this forum: No registered users and 1 guest