RTSP поток с IP-камеры

Чего не хватает в пакете

RTSP поток с IP-камеры

Postby ragalt » 05 Oct 2012, 05:27

Очень давно мечтаю смотреть вещание с IP-камеры D-Link DCS 2102 в формате rtsp которое отлично воспроизоводится на компьютере через VLC, старенький мобильник Nokia через Real-Player. Все попытки проиграть поток на плеере 3Q с прошивкой POHD v7.4.6.r7317 успехом не увенчались. Может быть у кого то получалось сиё извращение, ну уж очень хочется и верится что такое возможно. Самое обидное что даже видео которое пишет камера на локальный диск просмотреть на плеере не возможно. Но тут проблема в кодеке
Format : MPEG-4 Visual
Format profile : Simple@L1
Format settings, BVOP : Yes
Format settings, QPel : No
Format settings, GMC : No warppoints
Format settings, Matrix : Default (H.263)
Codec ID : XVID
Codec ID/Hint : XviD

, и вся надежда на китайцев :)
P.S: Ссылка на поток следующего вида - rtsp://ip.adress:port/3gpp или rtsp://ip.adress:port/1.sdp
3Q 3QMMP-F420HW [без HDD, RTD1073DD, USB(A), LAN, eSATA] + Прошивка HD2 1.12.06 rev 5.1
3Q 3QMMP-F320HW [без HDD, Realtek RTD1283DD, USB(A), LAN, eSATA] + Прошивка родная 3Q
Спасибо большое вам ребята за вашу работу!
User avatar
ragalt
 
Posts: 16
Joined: 08 Oct 2011, 08:47

Re: RTSP поток с IP-камеры

Postby skyman3337 » 18 Dec 2012, 19:35

да, это было бы замечательно! но! некому это делать.... (((
жаль конечно... было бы так здорово время от времени подключаться к камере для контроля ситуации в офисе.
кстати говоря один раз получилось подключиться к такой камере по upnp ! то есть кодек она понимает, только rtsp:// для плеера непонятен
skyman3337
 
Posts: 28
Joined: 21 Jul 2012, 00:18
Location: село Таежное

Re: RTSP поток с IP-камеры

Postby Pokrass » 18 Dec 2012, 19:47

не говорите глупости! rtsp протокол работает и в IPTVList и в Sayler's Media RSS и в ГлавТВ!
IconBIT HDS7L Fw: AMP_r12 GUI: VRT
iNeXT HD1 W Fw: X3D_Series_V4.0.2b160406
User avatar
Pokrass
 
Posts: 3115
Joined: 18 Mar 2012, 04:18
Location: Плюк. Планета № 215 в Тентуре галактики "Кин-дза-дза" в Спирали.

Re: RTSP поток с IP-камеры

Postby skyman3337 » 18 Dec 2012, 23:38

pokrass wrote:не говорите глупости! rtsp протокол работает и в IPTVList и в Sayler's Media RSS и в ГлавТВ!


почему же "глупости"? я же это не с чужих слов говорю! у меня есть камера dcs-2121. при включении через upnp все работает. картинка идет на экран с пристаки. а если через любой плеер на той же приставке, то ничего. пустой экран ((((
может что то нетак делаю? подскажите если знаете..
адрес указывал правильно. с таким же адресом на компе на VLC все показывает
skyman3337
 
Posts: 28
Joined: 21 Jul 2012, 00:18
Location: село Таежное

Re: RTSP поток с IP-камеры

Postby Pokrass » 18 Dec 2012, 23:43

Камерами я не пользуюсь и тонкостей не знаю. но то что rtsp потоки смотрел собственным глазом - факт.
Да и разработчики пишут список поддерживаемых протоколов, наверное, не просто так.
IconBIT HDS7L Fw: AMP_r12 GUI: VRT
iNeXT HD1 W Fw: X3D_Series_V4.0.2b160406
User avatar
Pokrass
 
Posts: 3115
Joined: 18 Mar 2012, 04:18
Location: Плюк. Планета № 215 в Тентуре галактики "Кин-дза-дза" в Спирали.

Re: RTSP поток с IP-камеры

Postby skyman3337 » 22 Dec 2012, 18:24

Pokrass wrote:Камерами я не пользуюсь и тонкостей не знаю. но то что rtsp потоки смотрел собственным глазом - факт.
Да и разработчики пишут список поддерживаемых протоколов, наверное, не просто так.


попробую попозже еще раз получить поток. может быть переустановить прошивку на родную?
skyman3337
 
Posts: 28
Joined: 21 Jul 2012, 00:18
Location: село Таежное

Re: RTSP поток с IP-камеры

Postby ragalt » 17 Mar 2013, 07:22

Может все таки есть какой нибудь способ хотя бы воспроизводить отснятое видео? Плеер почему то не хочет воспроизводить этот формат

MediaINFO | +
General
Complete name : Z:\video\20130317\09\20130317-094700.avi
Format : AVI
Format/Info : Audio Video Interleave
File size : 9.73 MiB
Duration : 46s 400ms
Overall bit rate : 1 758 Kbps

Video
ID : 0
Format : MPEG-4 Visual
Format profile : Simple@L1
Format settings, BVOP : Yes
Format settings, QPel : No
Format settings, GMC : No warppoints
Format settings, Matrix : Default (H.263)
Codec ID : XVID
Codec ID/Hint : XviD
Duration : 46s 218ms
Bit rate : 1 632 Kbps
Width : 1 024 pixels
Height : 768 pixels
Display aspect ratio : 4:3
Frame rate : 10.299 fps
Color space : YUV
Chroma subsampling : 4:2:0
Bit depth : 8 bits
Scan type : Progressive
Compression mode : Lossy
Bits/(Pixel*Frame) : 0.201
Stream size : 8.99 MiB (92%)

Audio
ID : 1
Format : PCM
Format settings, Endianness : Little
Format settings, Sign : Signed
Codec ID : 1
Duration : 46s 400ms
Bit rate mode : Constant
Bit rate : 128 Kbps
Channel(s) : 1 channel
Sampling rate : 8 000 Hz
Bit depth : 16 bits
Stream size : 725 KiB (7%)
Interleave, duration : 64 ms (0.66 video frame)
Interleave, preload duration : 704 ms


Все остальные форматы нормально воспроизводятся. Этот же - ни в какую. Есть ли решение проблемы подскажите, очень надо
3Q 3QMMP-F420HW [без HDD, RTD1073DD, USB(A), LAN, eSATA] + Прошивка HD2 1.12.06 rev 5.1
3Q 3QMMP-F320HW [без HDD, Realtek RTD1283DD, USB(A), LAN, eSATA] + Прошивка родная 3Q
Спасибо большое вам ребята за вашу работу!
User avatar
ragalt
 
Posts: 16
Joined: 08 Oct 2011, 08:47

Re: RTSP поток с IP-камеры

Postby vasvk2009 » 21 Oct 2014, 17:32

А ты какую RTSP-ссылку вставляешь в плейлист
Вот кстати парочка сайтов для определения rtsp ссылок IP-камер,
http://www.soleratec.com/support/rtsp/rtsp_listing
http://www.ispyconnect.com/sources.aspx
а также может пригодиться запущенная прога Xeoma,
http://felenasoft.com/xeoma/ru/
которая при запуске автоматически сканирует и выводит подобные rtsp или http ссылки не только на видео, но и на звук

Кстати, на заметку - у данной модели очень криво реализована трансляция звука через rtsp и некоторые приложения кроме vlc отказываются воспроизводить видео вместе со звукм
vasvk2009
 
Posts: 2
Joined: 20 Oct 2014, 15:24


Return to Предложения и пожелания

Who is online

Users browsing this forum: No registered users and 1 guest